Не жует кодек h.264

Вопросы и приёмы работы с программой монтажа видео.

Модератор: Flasher

Не жует кодек h.264

Сообщение Alikamoon » 20 фев 2015, 21:28

Господа эксперты, возникла такая проблема.
Пишу с экрана игру программой DXtory через кодек h.264vfw/mpeg4 AVC в avi формате.
Скажу сразу, эта программа мне очень нравится изза того что может писать аудио на несколько каналов и не сильно загружает систему, качество идельное. А кодек оптимальный. В других притормаживала игра почему-то. Поэтому очень не хочется на другое менять.......

Суть проблемы, Мой Сони Вегас 10 про не хочет открывать эти записанные видео. Пишет из разряда "ни одно из этих видео не возможно открыть"

Как быть? К-лайт кодек пак мега у меня установлен, установила еще отдельно x264vfw, не помогает.
Может сама 10ка уже морально устарела?

если нет каких то решений, то можно ли конвертировать видео с сохранением оригинальных аудиодорожек? (их 3)
Аватар пользователя
Alikamoon
Форумянин
Форумянин
 
Сообщений: 82
Зарегистрирован: 16 июн 2013, 19:48
Откуда: Москва

Re: Не жует кодек h.264

Сообщение Flasher » 20 фев 2015, 21:44

Сонька использует свои кодеки. Возможно поэтому не может открыть видео.
Посмотри параметры видео, отличаются от стандартных?
Можно попробовать еще перемуксировать видео avi в mp4 без перекодировки с помощью Avidemux 2.6 - 64bits
MMCompany
Аватар пользователя
Flasher
Модератор
Модератор
 
Сообщений: 1738
Зарегистрирован: 17 июн 2013, 14:03

Re: Не жует кодек h.264

Сообщение Alikamoon » 20 фев 2015, 21:51

Не знаю, отличаются ли от стандартных.....
Вот медиаинфо

 
General
Complete name : \\Alikamoon-пк\мои видеозаписи\ФРАПС\BlackDesert64 2015-02-19 23-05-44-077.avi
Format : AVI
Format/Info : Audio Video Interleave
Format profile : OpenDML
File size : 2.69 GiB
Duration : 1mn 16s
Overall bit rate : 304 Mbps
Original source form/Distributed by : Video:x264vfw - H.264/MPEG-4 AVC codec Audio0:Микрофон (Logitech Wireless Headset) Audio1:Динамики (Logitech Wireless Headset) Audio2:Динамики (Realtek High Definition Audio)
Writing application : DxtoryCore ver2.0.0.122
Video #0
ID : 0
Format : AVC
Format/Info : Advanced Video Codec
Format profile : Baseline@L3.2
Format settings, CABAC : No
Format settings, ReFrames : 1 frame
Codec ID : H264
Duration : 1mn 16s
Bit rate : 303 Mbps
Width : 1 280 pixels
Height : 1 024 pixels
Display aspect ratio : 5:4
Frame rate mode : Variable
Frame rate : 120.000 (24/30) fps
Original frame rate : 25.000 fps
Minimum frame rate : 24 fps
Maximum frame rate : 30 fps
Color space : YUV
Chroma subsampling : 4:2:0
Bit depth : 8 bits
Scan type : Progressive
Bits/(Pixel*Frame) : 1.925
Stream size : 2.68 GiB (100%)
Writing library : x264 core 130 r2274bm c832fe9
Encoding settings : cabac=0 / ref=1 / deblock=0:0:0 / analyse=0:0 / me=dia / subme=0 / psy=1 / psy_rd=1.00:0.00 / mixed_ref=0 / me_range=16 / chroma_me=1 / trellis=0 / 8x8dct=0 / cqm=0 / deadzone=21,11 / fast_pskip=1 / chroma_qp_offset=0 / threads=12 / lookahead_threads=2 / sliced_threads=0 / nr=0 / decimate=1 / interlaced=0 / bluray_compat=0 / constrained_intra=0 / bframes=0 / weightp=0 / keyint=250 / keyint_min=25 / scenecut=0 / intra_refresh=0 / rc=crf / mbtree=0 / crf=1.0 / qcomp=0.60 / qpmin=0 / qpmax=69 / qpstep=4 / ip_ratio=1.40 / aq=0
Audio #1
ID : 1
Format : MPEG Audio
Format version : Version 1
Format profile : Layer 3
Mode : Joint stereo
Codec ID : 55
Codec ID/Hint : MP3
Duration : 1mn 16s
Bit rate mode : Constant
Bit rate : 320 Kbps
Channel(s) : 2 channels
Sampling rate : 48.0 KHz
Compression mode : Lossy
Stream size : 2.91 MiB (0%)
Alignment : Split accross interleaves
Interleave, duration : 989 ms (118.70 video frames)
Audio #2
ID : 2
Format : MPEG Audio
Format version : Version 1
Format profile : Layer 3
Mode : Joint stereo
Codec ID : 55
Codec ID/Hint : MP3
Duration : 1mn 16s
Bit rate mode : Constant
Bit rate : 320 Kbps
Channel(s) : 2 channels
Sampling rate : 48.0 KHz
Compression mode : Lossy
Stream size : 2.91 MiB (0%)
Alignment : Split accross interleaves
Interleave, duration : 989 ms (118.70 video frames)
Audio #3
ID : 3
Format : MPEG Audio
Format version : Version 1
Format profile : Layer 3
Mode : Joint stereo
Codec ID : 55
Codec ID/Hint : MP3
Duration : 1mn 16s
Bit rate mode : Constant
Bit rate : 320 Kbps
Channel(s) : 2 channels
Sampling rate : 48.0 KHz
Compression mode : Lossy
Stream size : 2.91 MiB (0%)
Alignment : Split accross interleaves
Interleave, duration : 989 ms (118.70 video frames)
Аватар пользователя
Alikamoon
Форумянин
Форумянин
 
Сообщений: 82
Зарегистрирован: 16 июн 2013, 19:48
Откуда: Москва

Re: Не жует кодек h.264

Сообщение Alikamoon » 20 фев 2015, 22:03

Flasher писал(а):Можно попробовать еще перемуксировать видео avi в mp4 без перекодировки с помощью Avidemux 2.6 - 64bits

Попробовала, тоже самое пишет
Аватар пользователя
Alikamoon
Форумянин
Форумянин
 
Сообщений: 82
Зарегистрирован: 16 июн 2013, 19:48
Откуда: Москва

Re: Не жует кодек h.264

Сообщение Flasher » 20 фев 2015, 22:09

Значит сами кодеки вегаса и программы захвата видео не стыкуются.
А в премьере пробовала?
Битрейт : 304 Mbps подозрительный. Попробуй поставить. 20-30 мб\с.
MMCompany
Аватар пользователя
Flasher
Модератор
Модератор
 
Сообщений: 1738
Зарегистрирован: 17 июн 2013, 14:03

Re: Не жует кодек h.264

Сообщение Alikamoon » 20 фев 2015, 22:26

Flasher писал(а):Значит сами кодеки вегаса и программы захвата видео не стыкуются.
А в премьере пробовала?
Битрейт : 304 Mbps подозрительный. Попробуй поставить. 20-30 мб\с.

В премьере пробовала, но я там не разобралась, как сделать так, чтобы были все 3 дорожки (можно ли вообще?)

Честно, не нашла где в программе выставляется битрейт. Там можно выставить колво фпс и разрешение
вот прилагаю настройку кодека в DXtory
Изображение
Аватар пользователя
Alikamoon
Форумянин
Форумянин
 
Сообщений: 82
Зарегистрирован: 16 июн 2013, 19:48
Откуда: Москва

Re: Не жует кодек h.264

Сообщение Flasher » 20 фев 2015, 22:35

В прогр. захвата стоит Data rate - 0 kB\. походу по умолчанию максимум шпарит. поставь 20000kB\c
А ключевые кадры - авто, если возможно.
MMCompany
Аватар пользователя
Flasher
Модератор
Модератор
 
Сообщений: 1738
Зарегистрирован: 17 июн 2013, 14:03

Re: Не жует кодек h.264

Сообщение Alikamoon » 20 фев 2015, 22:54

эти опции без выбора, их невозможно изменить. кнопки неактивны
так же при отжатой галки дефолтных настроек
Аватар пользователя
Alikamoon
Форумянин
Форумянин
 
Сообщений: 82
Зарегистрирован: 16 июн 2013, 19:48
Откуда: Москва

Re: Не жует кодек h.264

Сообщение Flasher » 20 фев 2015, 22:57

значит захватывать в другом формате, если не хочешь перекодировки. экспериментируй. что схавает.
может вегас нашпиговать кодеками, привинчивающимися к нему. если такое возможно, как в премьере.
к-лайт не вариант. он только может внести системные конфликты.
MMCompany
Аватар пользователя
Flasher
Модератор
Модератор
 
Сообщений: 1738
Зарегистрирован: 17 июн 2013, 14:03

Re: Не жует кодек h.264

Сообщение Alikamoon » 20 фев 2015, 23:31

13 версия не жует также....

пробовала пережать в meGUI по статье хабра (http://habrahabr.ru/post/144033/)
он у меня ошибку выдает

пробовала просто конвертировать всякими прогами, они жуют аудиодорожки.

выше уже писала, в Avidemux 2.6 перемуксировка мп4 тоже не читает....(в 13 версии загружается, но там нет картинки и вместо звуков писк)
может я неправильно что-то сделала, скрин ниже. (хотя при воспроизведении все нормально с сохранением дорожек)

Изображение
Аватар пользователя
Alikamoon
Форумянин
Форумянин
 
Сообщений: 82
Зарегистрирован: 16 июн 2013, 19:48
Откуда: Москва

След.

Вернуться в Sony Vegas

Кто сейчас на форуме

Сейчас этот форум просматривают: нет зарегистрированных пользователей и гости: 1

??????.???????