Артефакты и лесенки

Вопросы и приёмы работы с программой монтажа видео.

Модератор: Flasher

Артефакты и лесенки

Сообщение Freakmeister » 13 апр 2015, 12:25

Пытаюсь зарендерить видео под YouTube с 60 фпс. На источнике, который я получил Bandicam-ом - всё чотенько, если открыть его простым медиа-проигрывателем. Но после прогонки через Vegas видны артефакты, лесенки и шлейфы замерших кадров (это вроде ghosting называется?). При чём не важно каким кодеком я сжимаю, результат виден ещё в преврью, если выставить наилучшее качество. Настройки проекта я выставил по файлу-исходнику, ресемплирование отключил. Так что я делаю не так?

Изображение

Изображение

Изображение

Изображение
Аватар пользователя
Freakmeister
 
Сообщений: 8
Зарегистрирован: 13 апр 2015, 12:19

Re: Артефакты и лесенки

Сообщение Freakmeister » 13 апр 2015, 13:49

Залил на ютуб две версии, чтобы было более наглядно. Пробовал сейчас зарендерить в avi без сжатия - результат тот же один в один. Может проблема в том, что вегас криво читает исходник?


Аватар пользователя
Freakmeister
 
Сообщений: 8
Зарегистрирован: 13 апр 2015, 12:19

Re: Артефакты и лесенки

Сообщение IceBearger » 13 апр 2015, 16:47

Я посмотрел ваши видео загруженные на ютьюб. Качество обычное. Всё видно. Надписи не рассыпаются. Артефакты на ютьюб будут всегда, вы от них не избавитесь. Мучиться и подбирать кодеки не вижу смысла. Результат всё равно будет одинаковым. Вариант в mp4 показался даже более чистеньким.
Лёха Icebearger
Аватар пользователя
IceBearger
Bennet Artworks
Bennet Artworks
 
Сообщений: 444
Зарегистрирован: 12 июн 2013, 11:00
Откуда: Москва

Re: Артефакты и лесенки

Сообщение Freakmeister » 14 апр 2015, 11:23

Проблема именно не в пережатии ютубом, а в пережатии Вегасом. Я использую GOM Player для просмотра видео на компе. Вот если им открываю исходник от Bandicam - там всё гладко. Открываю им же то что перегнал Вегасом - вижу артефакты. Буду пробовать наверно брать VirtualDubMod и пережимать исходники другим кодеком, может под другим кодеком Вегас их воспримет лучше.
Аватар пользователя
Freakmeister
 
Сообщений: 8
Зарегистрирован: 13 апр 2015, 12:19

Re: Артефакты и лесенки

Сообщение aeplug » 14 апр 2015, 12:28

бессмысленный разговор - где образцы? где медиа-инфо?
"у меня что-то не работает"
исходник от Bandicam

это вообще ни о чем не говорит
Аватар пользователя
aeplug
Гуру
Гуру
 
Сообщений: 1144
Зарегистрирован: 15 июн 2013, 13:26

Re: Артефакты и лесенки

Сообщение Freakmeister » 15 апр 2015, 02:51

Окей. Вот медиа-инфо. А образцы чего нужны?

 Исходник от Bandicam
Общее
Полное имя : E:\Video\Good Stuff\1\csgo 2015-04-05 19-44-30-2391.avi
Формат : AVI
Формат/Информация : Audio Video Interleave
Профиль формата : OpenDML
Размер файла : 11,3 Гбайт
Продолжительность : 36 м.
Общий поток : 43,8 Мбит/сек
Программа кодирования : BandiAviMuxer 1.0
Библиотека кодирования : VirtualDub build 35491/release

Видео
Идентификатор : 0
Формат : MPEG-4 Visual
Профиль формата : Advanced Simple@L5
Параметр BVOP формата : 2
Параметр QPel формата : Нет
Параметр GMC формата : Без точки перехода
Параметр матрицы формата : Default (H.263)
Режим смешивания : Сжатый битовый поток
Идентификатор кодека : XVID
Идентификатор кодека/Подсказка : XviD
Продолжительность : 36 м.
Битрейт : 42,3 Мбит/сек
Ширина : 1280 пикселей
Высота : 720 пикселей
Соотношение сторон : 16:9
Частота кадров : 60,000 кадров/сек
Цветовое пространство : YUV
Субдискретизация насыщенности : 4:2:0
Битовая глубина : 8 бит
Тип развёртки : Прогрессивная
Метод сжатия : С потерями
Бит/(Пиксели*Кадры) : 0.764
Размер потока : 10,9 Гбайт (96%)
Библиотека кодирования : XviD 65

Аудио
Идентификатор : 1
Формат : PCM
Параметр Endianness формата : Little
Параметр Sign формата : Signed
Идентификатор кодека : 1
Продолжительность : 36 м.
Вид битрейта : Постоянный
Битрейт : 1536 Кбит/сек
Каналы : 2 канала
Частота : 48,0 КГц
Битовая глубина : 16 бит
Размер потока : 406 Мбайт (4%)
Выравнивание : Соединение по промежуткам
Продолжительность промежутка : 17 мс. (1,00 видеокадр)
Время предзагрузки промежутка : 500 мс.


 MP4
Общее
Полное имя : E:\Без названия.mp4
Формат : MPEG-4
Профиль формата : Base Media / Version 2
Идентификатор кодека : mp42
Размер файла : 1,09 Гбайт
Продолжительность : 11 м.
Режим общего битрейта : Переменный
Общий поток : 14,2 Мбит/сек
Дата кодирования : UTC 2015-04-12 17:54:25
Дата пометки : UTC 2015-04-12 17:54:25

Видео
Идентификатор : 2
Формат : AVC
Формат/Информация : Advanced Video Codec
Профиль формата : Main@L3.2
Параметр CABAC формата : Да
Параметр ReFrames формата : 3 кадра
Параметр GOP формата : M=4, N=15
Идентификатор кодека : avc1
Идентификатор кодека/Информация : Advanced Video Coding
Продолжительность : 11 м.
Вид битрейта : Переменный
Битрейт : 14,0 Мбит/сек
Ширина : 1280 пикселей
Высота : 720 пикселей
Соотношение сторон : 16:9
Режим частоты кадров : Постоянный
Частота кадров : 59,940 кадров/сек
Стандарт вещания : NTSC
Цветовое пространство : YUV
Субдискретизация насыщенности : 4:2:0
Битовая глубина : 8 бит
Тип развёртки : Прогрессивная
Бит/(Пиксели*Кадры) : 0.253
Размер потока : 1,08 Гбайт (99%)
Язык : English
Дата кодирования : UTC 2015-04-12 17:54:25
Дата пометки : UTC 2015-04-12 17:54:25
Цветовой диапазон : Limited

Аудио
Идентификатор : 1
Формат : AAC
Формат/Информация : Advanced Audio Codec
Профиль формата : LC
Идентификатор кодека : 40
Продолжительность : 11 м.
Вид битрейта : Постоянный
Битрейт : 192 Кбит/сек
Каналы : channel0
Channel(s)_Original : 2 канала
Расположение каналов : Front: L R
Частота : 48,0 КГц
Метод сжатия : С потерями
Размер потока : 15,1 Мбайт (1%)
Язык : English
Дата кодирования : UTC 2015-04-12 17:54:25
Дата пометки : UTC 2015-04-12 17:54:25


 WMV
Общее
Полное имя : E:\Без названия.wmv
Формат : Windows Media
Размер файла : 829 Мбайт
Продолжительность : 11 м.
Режим общего битрейта : Постоянный
Общий поток : 10,5 Мбит/сек
Максимальный общий битрейт : 10,6 Мбит/сек
Дата кодирования : UTC 2015-04-12 13:03:16.395
SfOriginalFPS : 599400

Видео
Идентификатор : 2
Формат : VC-1
Профиль формата : MP@HL
Идентификатор кодека : WMV3
Идентификатор кодека/Информация : Windows Media Video 9
Идентификатор кодека/Подсказка : WMV3
Описание кодека : Windows Media Video 9 - Professional
Продолжительность : 11 м.
Вид битрейта : Постоянный
Битрейт : 10,3 Мбит/сек
Ширина : 1280 пикселей
Высота : 720 пикселей
Соотношение сторон : 16:9
Частота кадров : 59,940 кадров/сек
Цветовое пространство : YUV
Субдискретизация насыщенности : 4:2:0
Битовая глубина : 8 бит
Тип развёртки : Прогрессивная
Метод сжатия : С потерями
Бит/(Пиксели*Кадры) : 0.186
Размер потока : 812 Мбайт (98%)
Язык : Russian

Аудио
Идентификатор : 1
Формат : WMA
Версия формата : Version 2
Идентификатор кодека : 161
Идентификатор кодека/Информация : Windows Media Audio
Описание кодека : Windows Media Audio 9.2 - 192 kbps, 48 kHz, stereo (A/V) 1-pass CBR
Продолжительность : 11 м.
Вид битрейта : Постоянный
Битрейт : 192 Кбит/сек
Каналы : 2 канала
Частота : 48,0 КГц
Битовая глубина : 16 бит
Размер потока : 15,1 Мбайт (2%)
Язык : Russian


 Перегонка в несжатый avi
Общее
Полное имя : E:\Без названия.avi
Формат : AVI
Формат/Информация : Audio Video Interleave
Профиль формата : OpenDML
Размер файла : 102 Гбайт
Продолжительность : 11 м.
Общий поток : 1329 Мбит/сек
TCOD : 7666000000
TCDO : 14279000000

Видео
Идентификатор : 0
Формат : RGB
Идентификатор кодека : 0x00000000
Идентификатор кодека/Информация : Basic Windows bitmap format. 1, 4 and 8 bpp versions are palettised. 16, 24 and 32bpp contain raw RGB samples
Продолжительность : 11 м.
Битрейт : 1327 Мбит/сек
Ширина : 1280 пикселей
Высота : 720 пикселей
Соотношение сторон : 16:9
Частота кадров : 60,000 кадров/сек
Битовая глубина : 8 бит
Бит/(Пиксели*Кадры) : 24.000
Размер потока : 102 Гбайт (100%)

Аудио
Идентификатор : 1
Формат : PCM
Параметр Endianness формата : Little
Параметр Sign формата : Signed
Идентификатор кодека : 1
Продолжительность : 11 м.
Вид битрейта : Постоянный
Битрейт : 1536 Кбит/сек
Каналы : 2 канала
Частота : 48,0 КГц
Битовая глубина : 16 бит
Размер потока : 121 Мбайт (0%)
Выравнивание : Соединение по промежуткам
Продолжительность промежутка : 250 мс. (15,00 видеокадров)
Время предзагрузки промежутка : 250 мс.
Аватар пользователя
Freakmeister
 
Сообщений: 8
Зарегистрирован: 13 апр 2015, 12:19

Re: Артефакты и лесенки

Сообщение aeplug » 15 апр 2015, 03:43

А образцы чего нужны?

исходника, хотя я бы сказал что либо:
1 глючит вегас с хвидом
2 зажимал ли бандикам с переменной частотой
авторы почему то решили, что это так круто! и теперь постоянно кто то наступает на грабли
Частота кадров : 60,000 кадров/сек
не знаю отлавливает это тут или нет
обычно люди на звук жалуются. у тебя звук не отстает к концу?
Аватар пользователя
aeplug
Гуру
Гуру
 
Сообщений: 1144
Зарегистрирован: 15 июн 2013, 13:26

Re: Артефакты и лесенки

Сообщение Freakmeister » 15 апр 2015, 11:50

Со звуком всё нормально, ничего не отстаёт. Исходник весит 16 Gb, поэтому могу только на YouTube залить для визуального сравнения. А в Bandicam у меня стояли такие настройки.

Изображение
Аватар пользователя
Freakmeister
 
Сообщений: 8
Зарегистрирован: 13 апр 2015, 12:19

Re: Артефакты и лесенки

Сообщение aeplug » 15 апр 2015, 15:04

Буду пробовать наверно брать VirtualDubMod и пережимать исходники другим кодеком, может под другим кодеком Вегас их воспримет лучше.

ну и как?
образец можно и специально записать секунд на 10
Аватар пользователя
aeplug
Гуру
Гуру
 
Сообщений: 1144
Зарегистрирован: 15 июн 2013, 13:26

Re: Артефакты и лесенки

Сообщение Freakmeister » 15 апр 2015, 15:13

Как оказалось, VirtualDubMod пережимает максимум в 30 фпс. Я не нашёл в нём кодека, который умеет пережимать в 60 фпс. Это возможно только если сохранить видео как не сжатое. А исходник я залил на ютуб полностью:

Аватар пользователя
Freakmeister
 
Сообщений: 8
Зарегистрирован: 13 апр 2015, 12:19

След.

Вернуться в Sony Vegas

Кто сейчас на форуме

Сейчас этот форум просматривают: нет зарегистрированных пользователей и гости: 1

cron
??????.???????